osu file format v14

[General]
AudioFilename: majikai.mp3
AudioLeadIn: 1500
PreviewTime: 63653
Countdown: 0
SampleSet: Soft
StackLeniency: 0.4
Mode: 0
LetterboxInBreaks: 0
WidescreenStoryboard: 0

[Editor]
DistanceSpacing: 0.8
BeatDivisor: 4
GridSize: 4
TimelineZoom: 2.1

[Metadata]
Title:Ai no Scenario
TitleUnicode:アイのシナリオ
Artist:CHiCO with HoneyWorks
ArtistUnicode:CHiCO with HoneyWorks
Creator:litoluna
Version:Truth
Source:まじっく快斗1412
Tags:Magic Kaito opening
BeatmapID:632877
BeatmapSetID:269103

[Difficulty]
HPDrainRate:7
CircleSize:5
OverallDifficulty:8
ApproachRate:9
SliderMultiplier:1.8
SliderTickRate:2

[Events]
//Background and Video events
0,0,"magic.jpg",0,0
//Break Periods
//Storyboard Layer 0 (Background)
//Storyboard Layer 1 (Fail)
//Storyboard Layer 2 (Pass)
//Storyboard Layer 3 (Foreground)
//Storyboard Sound Samples

[TimingPoints]
737,333.333333333333,4,2,1,60,1,0
9736,-200,4,2,1,60,0,0
9820,-200,4,2,1,20,0,0
10903,-200,4,2,1,40,0,0
11070,-100,4,2,1,60,0,0
11403,-100,4,2,2,60,0,0
16070,-100,4,2,1,60,0,0
16736,-66.6666666666667,4,2,1,70,0,0
16903,-100,4,2,1,70,0,0
19403,-66.6666666666667,4,2,1,70,0,0
19570,-100,4,2,1,70,0,0
22070,-100,4,2,1,60,0,0
31570,-100,4,2,1,50,0,0
31653,-100,4,2,1,20,0,0
31736,-100,4,2,1,55,0,0
31820,-100,4,2,1,20,0,0
31903,-100,4,2,1,60,0,0
31986,-100,4,2,1,20,0,0
32070,-100,4,2,1,60,0,0
43403,-125,4,2,1,50,0,0
52736,-100,4,2,1,60,0,0
59403,-100,4,2,1,40,0,0
60070,-100,4,2,2,45,0,0
60736,-100,4,2,2,50,0,0
61403,-100,4,2,1,60,0,0
62070,-100,4,2,1,70,0,0
62403,-66.6666666666667,4,2,1,70,0,0
62570,-100,4,2,1,70,0,0
63736,-100,4,2,1,50,0,0
63986,-100,4,2,1,20,0,0
64070,-200,4,2,1,50,0,0
64320,-200,4,2,1,20,0,0
64403,-125,4,2,1,50,0,0
64653,-125,4,2,1,20,0,0
64736,-100,4,2,1,80,0,1
75736,-66.6666666666667,4,2,1,80,0,1
76070,-100,4,2,1,80,0,1
86236,-100,4,2,1,80,0,0
88903,-100,4,2,1,20,0,0

[Colours]
Combo1 : 153,0,0
Combo2 : 0,99,147
Combo3 : 234,234,0

[HitObjects]
288,170,737,6,0,B|326:140|329:84|295:50,1,135,6|0,0:0|0:0,0:0:0:0:
145,128,1070,2,0,L|234:111,1,90,2|0,0:0|0:0,0:0:0:0:
412,23,1403,2,0,L|405:114,1,90,2|0,0:0|0:0,0:0:0:0:
360,231,1736,1,2,0:0:0:0:
203,186,1903,6,0,B|230:165|263:161|293:171,1,90,0|2,0:0|0:0,0:0:0:0:
266,275,2236,1,0,0:0:0:0:
127,210,2403,1,2,0:0:0:0:
222,10,2570,2,0,L|214:105,1,90,0|2,0:0|0:0,0:0:0:0:
135,299,2903,2,0,L|128:210,1,90,0|2,0:0|0:0,0:0:0:0:
92,50,3236,1,0,0:0:0:0:
92,50,3320,1,0,0:0:0:0:
92,50,3403,6,0,L|106:223,1,135,2|0,0:0|0:0,0:0:0:0:
136,300,3736,2,0,B|161:279|191:267|220:263,1,90,2|0,0:0|0:0,0:0:0:0:
425,282,4070,1,2,0:0:0:0:
331,367,4236,2,0,B|306:342|297:307|303:275,1,90,0|2,0:0|0:0,0:0:0:0:
458,176,4570,6,0,L|369:159,1,90,0|2,0:0|0:0,0:0:0:0:
228,186,4903,1,0,0:0:0:0:
321,31,5070,1,2,0:0:0:0:
212,209,5236,2,0,B|177:203|153:174|150:142,1,90,0|0,0:0|0:0,0:0:0:0:
203,34,5570,1,12,0:0:0:0:
52,247,5737,1,2,0:0:0:0:
287,250,5903,1,8,0:0:0:0:
287,250,5986,1,0,0:0:0:0:
287,250,6070,6,0,B|326:217|328:158|294:121,1,135,6|0,0:0|0:0,0:0:0:0:
175,278,6403,2,0,L|272:271,1,90,2|0,0:0|0:0,0:0:0:0:
437,325,6736,1,2,0:0:0:0:
298,286,6903,2,0,L|208:292,1,90,0|2,0:0|0:0,0:0:0:0:
64,366,7236,1,0,0:0:0:0:
64,366,7320,1,0,0:0:0:0:
64,366,7403,6,0,B|34:334|26:290|39:253,1,90,2|0,0:0|0:0,0:0:0:0:
74,127,7736,1,2,0:0:0:0:
174,277,7903,1,0,0:0:0:0:
174,277,7986,1,0,0:0:0:0:
174,277,8070,1,2,0:0:0:0:
74,127,8236,2,0,B|55:114|32:110,1,45,0|0,0:0|0:0,0:0:0:0:
135,190,8403,2,0,B|172:197|208:190|239:174,1,90,2|0,0:0|0:0,0:0:0:0:
293,122,8653,1,0,0:0:0:0:
293,122,8736,5,12,0:0:0:0:
243,314,8903,1,2,0:0:0:0:
243,314,9070,1,2,0:0:0:0:
210,92,9236,1,12,0:0:0:0:
356,233,9403,1,2,0:0:0:0:
441,34,9570,1,2,0:0:0:0:
281,230,9736,6,0,B|277:309|378:362|461:289|449:204|396:171,1,315,4|2,0:0|0:3,0:0:0:0:
280,230,10986,1,0,0:0:0:0:
280,230,11070,2,0,L|157:290,1,135,2|0,0:3|0:0,0:0:0:0:
81,335,11403,5,2,0:0:0:0:
14,228,11570,2,0,B|0:196|2:162|17:134,1,90,2|0,0:0|0:0,0:0:0:0:
164,110,11903,1,2,0:0:0:0:
164,110,11986,1,0,0:0:0:0:
164,110,12070,2,0,L|218:117,1,45,2|0,0:0|0:0,0:0:0:0:
332,158,12236,2,0,L|240:145,1,90,0|2,0:0|0:0,0:0:0:0:
73,122,12570,6,0,L|165:109,1,90,2|0,0:0|0:0,0:0:0:0:
396,90,12903,2,0,B|410:68|413:43,1,45,2|0,0:0|0:0,0:0:0:0:
332,158,13070,2,0,B|319:187|319:218|330:245,1,90,2|0,0:0|0:0,0:0:0:0:
404,312,13320,1,0,0:0:0:0:
404,312,13403,2,0,L|459:329,2,45,2|0|2,0:0|0:0|0:0,0:0:0:0:
235,228,13736,1,2,0:0:0:0:
319,356,13903,1,0,0:0:0:0:
104,348,14070,6,0,B|77:325|63:294|61:263,1,90,2|2,0:0|0:0,0:0:0:0:
136,123,14403,1,0,0:0:0:0:
235,228,14570,1,2,0:0:0:0:
235,228,14653,1,0,0:0:0:0:
235,228,14736,2,0,B|270:239|305:238,2,45,2|0|0,0:0|0:0|0:0,0:0:0:0:
17,169,15070,2,0,B|0:140|2:106|17:79,1,90,2|2,0:0|0:0,0:0:0:0:
223,20,15403,5,2,0:0:0:0:
235,228,15570,1,2,0:0:0:0:
136,123,15736,1,2,0:0:0:0:
358,22,15903,2,0,L|350:137,1,90,2|10,0:0|0:0,0:0:0:0:
338,210,16153,1,0,0:0:0:0:
313,235,16236,2,0,L|320:175,1,45,2|2,0:0|0:0,0:0:0:0:
230,273,16403,2,0,L|237:213,1,45,8|0,0:0|0:0,0:0:0:0:
145,309,16570,2,0,L|152:249,1,45,0|0,0:0|0:0,0:0:0:0:
55,349,16736,6,0,L|77:170,1,135.000005149842,4|0,0:0|0:0,0:0:0:0:
197,50,17070,2,0,B|225:71|234:107|223:137,1,90,10|0,0:0|0:0,0:0:0:0:
55,134,17403,1,2,0:0:0:0:
204,203,17570,1,0,0:0:0:0:
204,203,17653,1,0,0:0:0:0:
204,203,17736,2,0,L|296:186,1,90,10|0,0:0|0:0,0:0:0:0:
486,265,18070,6,0,B|473:230|444:207|410:200,1,90,2|0,0:0|0:0,0:0:0:0:
153,185,18403,2,0,L|245:168,1,90,10|0,0:0|0:0,0:0:0:0:
431,64,18736,1,2,0:0:0:0:
343,241,18903,2,0,B|335:273|341:304|357:329,1,90,0|10,0:0|0:0,0:0:0:0:
497,358,19236,2,0,L|439:350,1,45,,,0:0:0:0:
296,366,19403,6,0,L|160:347,1,135.000005149842,2|0,0:0|0:0,0:0:0:0:
10,362,19736,2,0,B|42:351|66:330|82:303,1,90,10|0,0:0|0:0,0:0:0:0:
153,184,20070,1,2,0:0:0:0:
56,104,20236,2,0,B|36:95|15:93|-5:96,1,45,,,0:0:0:0:
90,224,20403,2,0,B|107:252|140:263|169:255,1,90,10|0,0:0|0:0,0:0:0:0:
323,92,20736,6,0,L|312:197,1,90,2|0,0:0|0:0,0:0:0:0:
163,13,21070,2,0,L|174:118,1,90,10|0,0:0|0:0,0:0:0:0:
226,349,21403,1,8,0:3:0:0:
254,326,21486,1,0,0:0:0:0:
285,308,21570,1,2,0:0:0:0:
320,304,21653,1,0,0:0:0:0:
355,304,21736,1,10,0:0:0:0:
390,313,21820,1,0,0:0:0:0:
419,332,21903,1,2,0:0:0:0:
445,355,21986,1,0,0:0:0:0:
468,382,22070,6,0,L|476:290,1,90,6|0,0:0|0:0,0:0:0:0:
400,129,22403,2,0,B|388:160|391:192|407:218,1,90,2|0,0:0|0:0,0:0:0:0:
503,167,22736,1,2,0:0:0:0:
447,24,22903,1,0,0:0:0:0:
315,178,23070,2,0,L|224:173,1,90,2|0,0:0|0:0,0:0:0:0:
50,216,23403,5,2,0:0:0:0:
138,138,23570,1,0,0:0:0:0:
60,28,23736,1,2,0:0:0:0:
148,220,23903,1,0,0:0:0:0:
92,348,24070,2,0,B|61:355|30:345|9:325,1,90,2|0,0:0|0:0,0:0:0:0:
139,138,24403,2,0,B|171:135|199:149|217:173,1,90,2|0,0:0|0:0,0:0:0:0:
236,377,24736,6,0,L|255:244,1,135,2|0,0:0|0:0,0:0:0:0:
316,177,25070,1,2,0:0:0:0:
412,286,25236,1,0,0:0:0:0:
207,378,25403,2,0,L|226:245,1,135,2|0,0:0|0:0,0:0:0:0:
316,177,25736,1,2,0:0:0:0:
139,234,25903,1,0,0:0:0:0:
332,321,26070,6,0,B|367:318|398:303|420:281,1,90,2|0,0:0|0:0,0:0:0:0:
317,177,26403,2,0,B|332:145|334:111|326:79,1,90,2|0,0:0|0:0,0:0:0:0:
418,192,26736,1,2,0:0:0:0:
225,118,26903,1,0,0:0:0:0:
332,321,27070,2,0,B|367:318|398:303|420:281,1,90,2|0,0:0|0:0,0:0:0:0:
217,264,27403,6,0,L|130:289,1,90,2|0,0:0|0:0,0:0:0:0:
37,360,27736,1,2,0:0:0:0:
70,191,27903,1,0,0:0:0:0:
131,289,28070,1,2,0:0:0:0:
37,360,28236,1,0,0:0:0:0:
167,197,28403,1,2,0:0:0:0:
253,376,28570,1,0,0:0:0:0:
70,191,28736,6,0,B|58:158|60:124|71:94,1,90,2|0,0:0|0:0,0:0:0:0:
257,37,29070,1,2,0:0:0:0:
167,197,29236,1,0,0:0:0:0:
113,34,29403,1,2,0:0:0:0:
259,200,29570,1,0,0:0:0:0:
113,34,29736,1,2,0:0:0:0:
285,227,29903,1,0,0:0:0:0:
285,227,29986,1,0,0:0:0:0:
285,227,30070,6,0,L|384:214,1,90,2|0,0:0|0:0,0:0:0:0:
439,118,30403,1,2,0:0:0:0:
285,227,30570,1,0,0:0:0:0:
383,319,30736,1,2,0:0:0:0:
308,93,30903,1,0,0:0:0:0:
285,227,31070,1,2,0:0:0:0:
266,360,31236,1,8,3:2:0:0:
266,360,31570,6,0,L|273:314,1,45,0|0,0:0|0:0,0:0:0:0:
285,228,31736,2,0,L|292:182,1,45,0|0,0:0|0:0,0:0:0:0:
308,94,31903,2,0,L|315:48,1,45,0|0,0:0|0:0,0:0:0:0:
193,171,32070,1,8,0:0:0:0:
160,187,32153,1,0,0:0:0:0:
124,189,32236,1,8,0:0:0:0:
90,174,32320,1,0,0:0:0:0:
69,144,32403,2,0,B|66:168|60:192,1,45,8|0,0:0|0:0,0:0:0:0:
0,242,32570,2,0,B|10:265|9:289,1,45,4|0,0:3|0:0,0:0:0:0:
32,363,32736,6,0,B|61:347|93:340|123:342,1,90,6|0,0:0|0:0,0:0:0:0:
266,360,33070,1,10,0:0:0:0:
201,263,33236,1,0,0:0:0:0:
358,175,33403,2,0,B|378:203|378:239|363:267,1,90,2|0,0:0|0:0,0:0:0:0:
266,360,33736,1,10,0:0:0:0:
201,263,33903,1,0,0:0:0:0:
408,349,34070,5,2,0:0:0:0:
201,263,34236,1,0,0:0:0:0:
266,360,34403,1,10,0:0:0:0:
358,175,34570,1,0,0:0:0:0:
201,263,34736,2,0,B|172:279|138:278|111:265,1,90,2|0,0:0|0:0,0:0:0:0:
44,79,35070,1,10,0:0:0:0:
154,196,35236,1,0,0:0:0:0:
47,318,35403,6,0,B|26:289|26:252|44:224,1,90,2|0,0:0|0:0,0:0:0:0:
242,126,35736,2,0,L|147:107,1,90,10|0,0:0|0:0,0:0:0:0:
334,261,36070,2,0,L|429:242,1,90,2|0,0:0|0:0,0:0:0:0:
367,49,36403,2,0,B|334:87|334:140|360:178,1,135,10|0,0:0|0:0,0:0:0:0:
334,261,36736,6,0,B|337:293|316:322|288:331,1,90,2|0,0:0|0:0,0:0:0:0:
115,213,37070,1,10,0:0:0:0:
194,124,37236,1,0,0:0:0:0:
230,236,37403,1,2,0:0:0:0:
82,101,37570,1,0,0:0:0:0:
153,322,37736,1,10,0:0:0:0:
310,149,37903,1,0,0:0:0:0:
115,213,38070,6,0,B|84:229|49:224|23:205,1,90,2|0,0:0|0:0,0:0:0:0:
82,101,38403,1,10,0:0:0:0:
230,236,38570,2,0,B|244:266|243:298|231:325,1,90,0|2,0:0|0:0,0:0:0:0:
67,370,38903,1,0,0:0:0:0:
168,281,39070,1,10,0:0:0:0:
314,368,39236,1,0,0:0:0:0:
418,210,39403,6,0,B|384:202|350:212|326:233,1,90,2|0,0:0|0:0,0:0:0:0:
402,334,39736,1,10,0:0:0:0:
503,153,39903,2,0,B|512:122|511:92|503:64,1,90,0|2,0:0|0:0,0:0:0:0:
333,227,40236,1,0,0:0:0:0:
333,227,40320,1,0,0:0:0:0:
333,227,40403,2,0,L|235:227,1,90,10|0,0:0|0:0,0:0:0:0:
76,155,40736,5,2,0:0:0:0:
169,281,40903,1,0,0:0:0:0:
235,133,41070,1,10,0:0:0:0:
45,281,41236,2,0,L|-4:281,2,45,0|0|2,0:0|0:0|0:0,0:0:0:0:
169,281,41570,1,8,0:3:0:0:
76,155,41736,1,8,0:0:0:0:
240,371,41903,6,0,B|272:375|303:365|325:346,1,90,6|0,0:0|0:0,0:0:0:0:
444,384,42236,1,2,0:0:0:0:
364,163,42403,1,12,0:0:0:0:
262,289,42570,1,0,0:0:0:0:
262,289,42653,1,0,0:0:0:0:
262,289,42736,1,8,0:0:0:0:
472,229,42903,1,8,0:3:0:0:
484,123,43070,1,4,0:3:0:0:
494,19,43236,1,4,0:3:0:0:
364,163,43403,6,0,B|327:168|292:159,1,72,6|0,0:0|0:0,0:0:0:0:
140,44,43736,2,0,B|177:39|212:48,1,72,0|2,0:0|0:0,0:0:0:0:
167,139,44070,1,8,0:0:0:0:
82,306,44236,2,0,B|52:264|54:209|80:170,1,144,,,0:0:0:0:
291,159,44736,5,2,0:0:0:0:
291,159,44903,1,8,0:0:0:0:
218,247,45070,2,0,L|136:239,1,72,0|2,0:0|0:0,0:0:0:0:
291,159,45403,1,8,0:0:0:0:
273,358,45570,2,0,B|231:350|201:313|202:269|223:238,1,144,0|0,0:0|0:0,0:0:0:0:
368,320,46070,6,0,L|440:314,1,72,4|0,0:0|0:0,0:0:0:0:
289,253,46403,2,0,L|217:247,1,72,0|2,0:0|0:0,0:0:0:0:
368,320,46736,2,0,B|404:337|447:324|470:290|469:254,1,144,8|0,0:0|0:0,0:0:0:0:
399,100,47236,2,0,B|393:129|397:157|408:182,1,72,0|2,0:0|0:0,0:0:0:0:
478,72,47570,6,0,L|336:48,1,144,8|2,0:3|0:0,0:0:0:0:
152,85,48070,1,8,0:0:0:0:
219,169,48236,1,8,0:3:0:0:
161,261,48403,2,0,L|172:153,1,108,8|0,0:3|0:0,0:0:0:0:
159,12,48736,6,0,L|152:84,1,72,6|0,0:0|0:0,0:0:0:0:
60,214,49070,1,0,0:0:0:0:
180,86,49236,2,0,L|187:14,2,72,2|8|0,0:0|0:0|0:0,0:0:0:0:
160,261,49736,6,0,B|191:221|245:211|288:232,1,144,0|2,0:0|0:0,0:0:0:0:
424,342,50236,2,0,B|397:346|371:340|350:326,1,72,8|0,0:0|0:0,0:0:0:0:
407,236,50570,1,2,0:0:0:0:
512,307,50736,2,0,L|500:378,1,72,8|0,0:0|0:0,0:0:0:0:
407,236,51070,2,0,L|394:155,1,72,0|0,0:0|0:0,0:0:0:0:
295,33,51403,5,6,0:0:0:0:
281,118,51570,1,0,0:0:0:0:
193,282,51736,1,0,0:0:0:0:
179,197,51903,1,2,0:0:0:0:
281,118,52070,5,8,0:0:0:0:
387,134,52237,1,0,0:0:0:0:
179,197,52403,1,0,0:0:0:0:
73,213,52570,1,0,0:0:0:0:
308,283,52736,5,8,0:0:0:0:
329,288,52820,1,0,0:0:0:0:
350,294,52903,1,2,0:0:0:0:
371,299,52986,1,2,0:0:0:0:
392,305,53070,2,0,B|368:284|359:252|365:223,1,90,8|2,0:0|0:0,0:0:0:0:
510,330,53403,1,8,0:0:0:0:
270,363,53570,5,8,0:0:0:0:
234,336,53653,1,0,0:0:0:0:
218,293,53736,1,8,0:0:0:0:
221,247,53820,1,0,0:0:0:0:
243,208,53903,1,8,0:0:0:0:
281,185,53986,1,0,0:0:0:0:
325,173,54070,6,0,B|346:148|349:113|334:87,1,90,6|2,0:0|0:0,0:0:0:0:
236,27,54403,1,8,0:0:0:0:
125,158,54570,1,0,0:0:0:0:
125,158,54653,1,8,0:0:0:0:
125,158,54736,1,2,0:0:0:0:
302,282,54903,1,2,0:0:0:0:
266,171,55070,1,8,0:0:0:0:
161,263,55236,2,0,L|111:257,1,45,0|8,0:0|0:0,0:0:0:0:
18,240,55403,5,2,0:0:0:0:
193,113,55570,1,2,0:0:0:0:
218,360,55736,1,8,0:0:0:0:
125,158,55903,1,0,0:0:0:0:
125,158,55986,1,8,0:0:0:0:
125,158,56070,2,0,B|112:127|114:94|126:66,1,90,2|2,0:0|0:0,0:0:0:0:
236,27,56403,1,8,0:0:0:0:
344,143,56570,2,0,L|329:195,1,45,0|8,0:0|0:0,0:0:0:0:
302,281,56736,6,0,B|328:263|360:259|388:267,1,90,2|2,0:0|0:0,0:0:0:0:
478,356,57070,1,8,0:0:0:0:
250,226,57236,1,0,0:0:0:0:
250,226,57320,1,8,0:0:0:0:
250,226,57403,2,0,B|234:196|235:162|247:133,1,90,2|2,0:0|0:0,0:0:0:0:
457,99,57736,2,0,L|368:88,1,90,8|2,0:0|0:0,0:0:0:0:
95,90,58070,5,12,0:0:0:0:
197,35,58236,1,8,0:0:0:0:
155,210,58403,1,8,0:0:0:0:
201,17,58570,1,8,0:0:0:0:
250,226,58736,1,8,0:0:0:0:
37,190,58903,1,8,0:0:0:0:
272,75,59070,1,8,0:0:0:0:
183,321,59236,1,8,0:0:0:0:
95,91,59403,5,4,0:0:0:0:
183,321,59736,1,0,0:0:0:0:
81,46,60070,5,8,0:0:0:0:
183,321,60403,1,0,0:0:0:0:
66,3,60736,5,8,0:0:0:0:
183,321,61070,1,0,0:0:0:0:
96,94,61403,5,8,0:3:0:0:
142,206,61653,5,8,0:3:0:0:
183,321,61903,5,8,0:3:0:0:
389,256,62070,6,0,L|255:268,1,135,4|0,0:0|0:0,0:0:0:0:
142,206,62403,2,0,L|276:194,1,135,0|0,0:0|0:0,0:0:0:0:
485,51,62736,1,8,0:0:0:0:
390,256,62903,1,8,0:0:0:0:
390,256,62986,1,0,0:0:0:0:
390,256,63070,1,8,0:0:0:0:
208,98,63236,1,2,0:3:0:0:
208,98,63736,6,0,B|202:189|202:189|220:180|234:159,1,135,0|0,0:0|0:0,0:0:0:0:
150,255,64070,2,0,B|130:239|121:216|123:193,1,67.5,,,0:0:0:0:
119,335,64403,2,0,B|155:350|194:337|217:309,1,108,,,0:0:0:0:
208,97,64736,6,0,L|202:188,1,90,6|0,0:0|0:0,0:0:0:0:
110,20,65070,2,0,L|116:111,1,90,10|0,0:0|0:0,0:0:0:0:
150,255,65403,1,2,0:0:0:0:
282,135,65570,2,0,B|313:120|347:117|378:125,1,90,0|10,0:0|0:0,0:0:0:0:
499,221,65903,2,0,B|475:220|454:208,1,45,0|0,0:0|0:0,0:0:0:0:
369,123,66070,6,0,L|375:216,1,90,2|0,0:0|0:0,0:0:0:0:
436,333,66403,1,10,0:0:0:0:
277,216,66570,1,0,0:0:0:0:
277,216,66653,1,0,0:0:0:0:
277,216,66736,2,0,L|271:309,2,90,2|0|10,0:0|0:0|0:0,0:0:0:0:
126,353,67236,1,0,0:0:0:0:
126,353,67320,1,0,0:0:0:0:
126,353,67403,6,0,B|81:374|28:352|10:308,1,135,2|0,0:0|0:0,0:0:0:0:
42,202,67736,2,0,B|54:168|52:134|40:103,1,90,10|0,0:0|0:0,0:0:0:0:
193,158,68070,1,2,0:0:0:0:
92,272,68236,1,0,0:0:0:0:
92,272,68320,1,0,0:0:0:0:
92,272,68403,1,10,0:0:0:0:
273,258,68570,6,0,L|369:247,1,90,0|2,0:0|0:0,0:0:0:0:
479,317,68903,1,0,0:0:0:0:
406,141,69070,1,10,0:0:0:0:
183,268,69236,2,0,L|279:257,1,90,0|2,0:0|0:0,0:0:0:0:
503,358,69570,1,0,0:0:0:0:
503,358,69653,1,0,0:0:0:0:
503,358,69736,1,10,0:0:0:0:
388,94,69903,1,0,0:0:0:0:
388,94,69986,1,0,0:0:0:0:
388,94,70070,6,0,B|374:65|374:33|385:6,1,90,6|0,0:0|0:0,0:0:0:0:
476,217,70403,2,0,L|384:208,1,90,10|0,0:0|0:0,0:0:0:0:
188,87,70736,1,2,0:0:0:0:
170,222,70903,2,0,B|207:233|245:220|269:192,1,90,0|10,0:0|0:0,0:0:0:0:
305,51,71236,2,0,L|303:114,1,45,0|0,0:0|0:0,0:0:0:0:
256,206,71403,6,0,L|253:295,1,90,2|0,0:0|0:0,0:0:0:0:
447,364,71736,2,0,B|419:322|367:309|324:329,1,135,10|0,0:0|0:0,0:0:0:0:
248,384,72070,1,2,0:0:0:0:
170,222,72236,1,0,0:0:0:0:
170,222,72320,1,0,0:0:0:0:
170,222,72403,2,0,L|172:132,1,90,10|0,0:0|0:0,0:0:0:0:
174,32,72653,1,0,0:0:0:0:
174,32,72736,5,2,0:0:0:0:
43,204,72903,1,0,0:0:0:0:
43,204,72986,1,0,0:0:0:0:
43,204,73070,1,10,0:0:0:0:
255,103,73236,5,0,0:0:0:0:
255,103,73320,1,0,0:0:0:0:
255,103,73403,2,0,L|263:47,1,45,2|0,0:0|0:0,0:0:0:0:
322,225,73570,2,0,L|330:169,1,45,,,0:0:0:0:
405,337,73736,2,0,L|421:223,1,90,10|0,0:0|0:0,0:0:0:0:
433,146,73986,1,0,0:0:0:0:
433,146,74070,5,6,0:0:0:0:
310,311,74236,2,0,B|279:324|245:321|218:306,1,90,0|10,0:0|0:0,0:0:0:0:
48,384,74570,1,8,0:0:0:0:
48,384,74653,1,0,0:0:0:0:
48,384,74736,1,10,0:0:0:0:
271,229,74903,1,8,0:0:0:0:
302,197,74986,1,0,0:0:0:0:
320,155,75070,1,10,0:0:0:0:
326,110,75153,1,0,0:0:0:0:
315,66,75236,1,8,0:0:0:0:
289,28,75320,1,0,0:0:0:0:
249,6,75403,5,6,0:0:0:0:
470,146,75570,1,2,0:0:0:0:
167,192,75736,2,0,B|141:245|158:308|207:343|258:345,1,202.500007724762,10|0,0:0|0:0,0:0:0:0:
353,285,76070,2,0,B|399:270|447:273,1,90,2|0,0:0|0:0,0:0:0:0:
497,376,76403,1,10,0:0:0:0:
250,344,76570,6,0,L|156:332,1,90,0|2,0:0|0:0,0:0:0:0:
26,154,76903,1,2,0:0:0:0:
82,321,77070,1,8,0:0:0:0:
111,91,77236,1,0,0:0:0:0:
111,91,77320,1,0,0:0:0:0:
111,91,77403,1,2,0:0:0:0:
13,284,77570,1,0,0:0:0:0:
170,203,77736,2,0,B|201:192|232:191|261:198,1,90,10|0,0:0|0:0,0:0:0:0:
354,242,77986,1,0,0:0:0:0:
354,242,78070,6,0,L|344:149,1,90,2|2,0:0|0:0,0:0:0:0:
246,4,78403,2,0,B|221:50|234:105|272:135,1,135,8|0,0:0|0:0,0:0:0:0:
432,147,78736,2,0,B|401:139|370:142|342:153,1,90,2|0,0:0|0:0,0:0:0:0:
247,273,79070,1,8,0:0:0:0:
421,345,79236,2,0,B|449:344|475:334,1,45,,,0:0:0:0:
337,369,79403,6,0,B|292:355|247:355,1,90,2|2,0:0|0:0,0:0:0:0:
50,361,79736,1,10,0:0:0:0:
176,208,79903,1,0,0:0:0:0:
176,208,79986,1,0,0:0:0:0:
176,208,80070,1,2,0:0:0:0:
168,338,80236,1,0,0:0:0:0:
12,201,80403,1,10,0:0:0:0:
263,261,80570,1,0,0:0:0:0:
263,261,80653,1,0,0:0:0:0:
263,261,80736,6,0,B|284:232|285:195|269:166,1,90,6|2,0:0|0:0,0:0:0:0:
59,103,81070,2,0,L|194:94,1,135,8|0,0:0|0:0,0:0:0:0:
306,108,81403,2,0,L|212:113,1,90,2|0,0:0|0:0,0:0:0:0:
110,11,81736,1,10,0:0:0:0:
81,220,81903,1,0,0:0:0:0:
81,220,81986,1,0,0:0:0:0:
81,220,82070,6,0,L|174:214,1,90,2|2,0:0|0:0,0:0:0:0:
376,284,82403,2,0,B|339:252|334:199|361:162,1,135,8|0,0:0|0:0,0:0:0:0:
451,103,82736,1,2,0:0:0:0:
420,215,82903,1,0,0:0:0:0:
236,119,83070,2,0,B|226:88|227:56|236:27,1,90,10|0,0:0|0:0,0:0:0:0:
279,180,83320,6,0,B|283:196|283:211|279:226,1,45,0|2,0:0|0:0,0:0:0:0:
158,333,83570,1,2,0:0:0:0:
376,283,83736,1,8,0:0:0:0:
202,185,83903,1,0,0:0:0:0:
202,185,83986,1,0,0:0:0:0:
202,185,84070,1,2,0:0:0:0:
256,360,84236,1,0,0:0:0:0:
99,226,84403,1,10,0:0:0:0:
376,283,84570,1,0,0:0:0:0:
99,226,84736,5,10,0:0:0:0:
73,200,84820,1,0,0:0:0:0:
58,167,84903,1,8,0:0:0:0:
53,131,84986,1,0,0:0:0:0:
58,95,85070,2,0,L|85:47,1,45,10|0,0:0|0:0,0:0:0:0:
254,104,85236,5,2,0:0:0:0:
289,112,85320,1,0,0:0:0:0:
324,112,85403,1,12,0:0:0:0:
359,106,85486,1,0,0:0:0:0:
392,92,85570,2,0,L|384:196,1,90,8|2,0:0|0:0,0:0:0:0:
372,327,85820,1,0,0:0:0:0:
372,327,85903,6,0,L|376:280,2,45,8|0|6,0:0|0:0|0:0,0:0:0:0:
161,384,86236,1,2,0:0:0:0:
307,238,86403,1,2,0:0:0:0:
453,372,86570,5,12,0:0:0:0:
154,250,86736,1,2,0:0:0:0:
309,28,86903,1,2,0:0:0:0:
318,384,87070,5,12,0:0:0:0:
256,192,87153,12,0,88903,0:0:0:0:
